#TITLE:piteate un flaite;
#SUBTITLE:~AMR original~;
#ARTIST:Dj.Conejo & Pelao Rodrigo;
#TITLETRANSLIT:;
#SUBTITLETRANSLIT:;
#ARTISTTRANSLIT:;
#CREDIT:;
#BANNER:Sin ttulo-2.png;
#BACKGROUND:Sin ttulo-1.png;
#LYRICSPATH:;
#CDTITLE:AMR.png;
#MUSIC:Dj[1].Conejo  Pelao Rodrigo - Piteate Un Flaite.mp3;
#OFFSET:-0.069;
#SAMPLESTART:50.845;
#SAMPLELENGTH:12.000;
#SELECTABLE:YES;
#BPMS:0.000=138.000;
#STOPS:;
#BGCHANGES:;
// cache tags:
#FIRSTBEAT:2.000;
#LASTBEAT:400.000;
#SONGFILENAME:Songs/Chilean Keyboard Megapack 3/(AMR) Piteate un flaite/PITEATE UN FLITE.sm;
#HASMUSIC:1;
#HASBANNER:1;
#MUSICLENGTH:177.818;
// end cache tags

//---------------dance-single - ----------------
#NOTES:
     dance-single:
     :
     Challenge:
     12:
     0.877,1.000,1.000,0.191,0.779,870.000,188.000,34.000,0.000,1.000:
0000
0000
1001
0000
,
0101
0000
0000
0000
0011
0110
1100
0110
,
0011
0000
1100
0000
2002
0000
0000
0000
0000
0000
0000
3003
0000
0001
0010
0100
,
0000
0100
0010
0001
0200
0000
0000
0000
0310
0000
0000
0000
2000
3000
0000
0000
,
0110
0000
0000
0000
1100
0000
0000
0000
0011
1000
0100
1000
0100
1000
0100
1000
,
0100
1000
0100
1000
0100
1000
0100
1000
0010
0100
0010
0100
0010
0100
0010
0100
,
0010
0100
0010
0100
0010
0100
0010
0100
1001
0100
0001
0100
0001
0100
0001
0100
,
0001
0100
0001
0100
0001
0100
0001
0100
1000
0100
1000
0100
1000
0100
1000
0100
,
1000
0100
1000
0100
1000
0100
1000
0100
0011
1000
0100
1000
0100
1000
0100
1000
,
0100
1000
0100
1000
0100
1000
0100
1000
0100
1000
0100
1000
0100
1000
0100
1000
,
0100
1000
0100
1000
0002
0000
0003
0000
0110
0000
1000
0000
0000
0000
1000
0000
,
0000
1000
0000
1000
0000
1000
0000
1000
,
0000
1000
0000
1000
0000
1000
0000
1000
,
0000
1000
0000
1000
0000
1000
0000
1000
,
0000
1000
0000
1000
0000
1000
0000
1000
,
0000
1000
0000
1000
0000
1000
0000
1000
,
0000
1000
0000
1000
0000
1000
0000
1000
,
0000
1000
0000
1000
1100
0011
0101
1010
,
1100
0000
0110
0000
0011
0000
0110
0000
2200
3300
0010
0000
0001
0000
0100
0000
,
0010
0000
0000
1000
0000
0000
0100
0000
0010
0000
0000
0002
0000
0000
0003
0000
,
0000
0000
1000
0000
0010
0000
0100
0000
0010
0000
0000
0100
0000
0000
0001
0000
,
0010
0000
0000
0100
0000
0000
1000
0000
0010
0000
0000
0200
0000
0000
0300
0000
,
0000
0000
1000
0000
0100
0000
0010
0000
0001
0000
0000
1000
0000
0000
0010
0000
,
0100
0000
0000
0001
0000
0000
1000
0000
0100
0000
0000
0010
0000
0000
0000
0000
,
0000
0000
1000
0000
0100
0000
0010
0000
0001
0100
0000
0000
0000
0001
0000
1000
,
0100
1000
0001
0100
0000
0010
0000
0000
1000
0000
0100
0000
0010
0000
0001
0000
,
0100
0000
0010
0000
1000
0000
0010
0000
0101
0000
0000
1000
0000
0000
0100
0000
,
0010
0000
0000
0001
0000
0000
0010
0000
0100
0000
0000
2000
0000
0000
3000
0000
,
0000
0000
0010
0000
0100
0000
0001
0000
1000
0000
0000
0100
0000
0000
0010
0000
,
0001
0000
0100
0000
0010
0000
0100
0000
0001
0000
0000
2000
0000
0000
3000
0000
,
0000
0000
0010
0000
0100
0000
0001
0000
1000
0000
0000
0100
0000
0000
0100
0000
,
0010
0000
0000
0001
0000
0000
0100
0000
0010
0000
0000
2000
0000
3000
0000
0000
,
0000
0000
0010
0000
0100
0000
0001
0000
0010
0000
0000
0100
0000
0000
1000
0000
,
0100
0000
0000
0000
0000
0000
0010
0000
0000
0000
0000
0000
0001
0000
0000
0000
0100
0010
0100
0010
0100
0010
0100
0010
0100
0010
0100
0010
0100
0010
0100
0010
,
0100
0010
0100
0010
0100
0010
0100
0010
1000
0000
0000
0000
0001
0000
0100
0000
1001
0000
0100
0000
0010
0000
0000
0000
0001
0000
0000
0000
0100
0000
0000
0000
,
1010
0000
0101
0000
1010
0000
0000
0010
0100
0001
1000
0000
0100
0000
0010
0000
,
0011
0000
1100
0000
0011
0000
0000
0010
0100
0010
0001
0000
0100
0000
0010
0000
,
1010
0000
1100
0000
0011
0000
0000
0010
0001
0100
0010
1000
0100
0010
0001
0100
,
0010
1000
0001
0010
0100
0000
0000
0010
0100
0010
0001
0000
0100
0000
0010
0000
,
0110
0000
1001
0000
0110
0000
0000
0010
0001
0010
0100
0000
1000
0000
0001
0000
,
0101
0000
0011
0000
1100
0000
0000
1000
0100
0010
0001
0000
0100
0000
0010
0000
,
1010
0000
1100
0000
0011
0000
0000
0100
0001
0010
0100
1000
0100
0010
0001
0010
,
0100
0001
0100
0010
0001
0000
0000
1000
0010
0100
0001
0000
0010
0000
0100
0000
,
2000
0000
0001
0000
3100
0000
0000
0010
0100
0001
1000
0000
0100
0000
0010
0000
,
0002
0000
1000
0000
0103
0000
0000
0100
0010
1000
0100
0000
0010
0000
0001
0000
,
0200
0000
1000
0000
0301
0000
0000
0100
0010
1000
0100
0010
0001
0010
0100
1000
,
0010
0100
0001
0010
0100
0000
0000
1000
1000
1000
1000
0000
0001
0000
0100
0000
,
1010
0000
0101
0000
0011
0000
0000
0001
0001
0001
0001
0000
0010
0000
0100
0000
,
0110
0000
1001
0000
0110
0000
0000
0010
0010
0010
0010
0000
0100
0000
0001
0000
,
1010
0000
1010
0000
1010
0000
0000
0010
0100
0001
1000
0100
0010
0100
1000
0100
,
0010
0000
0001
0000
0100
0000
0010
0000
1000
0000
0000
0000
0010
0100
0010
0100
0110
0000
0000
0000
0011
0000
0011
0000
0000
0000
0000
0000
0101
0000
0000
0000
,
1010
0000
1010
1010
0000
0000
1001
0000
1100
0000
0000
0000
0011
0000
0000
0000
,
0101
0000
1010
0000
1100
0000
0011
0000
0110
0000
0011
0011
0000
0000
0101
0000
,
1010
0000
1100
1100
0000
0000
1010
0000
0101
0000
0000
0000
0011
0000
0000
0000
,
1100
0000
0011
0000
0110
0000
1010
0000
0110
0000
0101
1010
0000
0000
0101
0000
,
0011
0000
1100
0110
0000
0000
0011
0000
0101
0000
0000
0000
1010
0000
0000
0000
,
1100
0000
0110
0000
1100
0000
0110
0110
0011
0000
0011
0011
0101
0000
1001
0000
,
1100
0000
0110
0110
0011
0000
0110
0000
1100
0000
0000
0000
0101
0000
0000
0000
,
1100
1010
0110
0101
2000
0000
0001
0000
,
0001
0001
0001
0001
,
3001
0000
0100
0000
0100
0000
0100
0000
0100
0000
2000
0000
3001
0000
0100
0001
,
1000
0001
1000
0001
1000
0000
0200
0000
0310
0000
0010
0000
0001
0000
0001
0000
,
0100
0000
0100
0000
0010
0000
0010
0000
1010
0000
0000
0100
0000
0000
0001
0000
,
0010
0000
0000
0100
0000
0000
1000
0000
0010
0000
0000
0100
0000
0000
0000
0000
,
0000
0000
0001
0000
0010
0000
0100
0000
1000
0000
0000
0010
0000
0000
0100
0000
,
0011
0000
0000
0000
0000
0000
0220
0000
0000
0000
0330
0000
1001
0000
0000
0000
2000
0001
3100
0001
0100
0001
0100
0001
0100
0001
0100
0001
0100
0001
0100
0001
,
0100
0001
0100
0001
0100
0001
0100
0001
2000
0000
0000
0000
0000
0000
0010
0000
3101
0000
0010
0000
1000
0000
0000
0000
0100
0000
0000
0000
0010
0000
0000
0000
,
0011
0000
1100
0000
0011
0000
0000
0010
0100
1000
0010
0000
0100
0000
0001
0000
,
1100
0000
1010
0000
0101
0000
0000
0010
0100
0001
1000
0000
0100
0000
0010
0000
,
0101
0000
1010
0000
0011
0000
0000
0010
0100
1000
0010
0100
0001
1000
0100
0010
,
0001
0100
0010
1000
0100
0000
0000
1000
0001
0010
0100
0000
1000
0000
0010
0000
,
0110
0000
1001
0000
0110
0000
0000
0010
0100
0001
1000
0000
0100
0000
0010
0000
,
0011
0000
0101
0000
0011
0000
0000
0100
0010
1000
0001
0000
0010
0000
0100
0000
,
1100
0000
0110
0000
1100
0000
0000
0001
0010
0100
1000
0001
0010
0100
1000
0001
,
0100
0010
1000
0100
0010
0000
0000
0010
1000
0001
0100
0000
0010
0000
1000
0000
,
0110
0000
0101
0000
1100
0000
0000
0100
0001
0010
0100
0000
1000
0000
0100
0000
,
0101
0000
1100
0000
1010
0000
0000
0100
0001
0010
0100
0000
0010
0000
0001
0000
,
0101
0000
1010
0000
0101
0000
0000
0100
0010
1000
0001
0010
1000
0010
0001
0100
,
0010
1000
0100
0010
0001
0000
0000
0010
0010
0010
0010
0000
0001
0000
0100
0000
,
1010
0000
1100
0000
0011
0000
0000
0100
0100
0100
0100
0000
1000
0000
0010
0000
,
0011
0000
0101
0000
1010
0000
0000
0100
0100
0100
0100
0000
1000
0000
0010
0000
,
0101
0000
0011
0000
1100
0000
0000
0010
0001
0100
1000
0001
0010
1000
0001
0010
,
0100
1000
0100
0010
0001
0000
1000
0000
0100
0000
0000
0010
0000
0000
0001
0000
,
0100
0000
0010
0000
1000
0000
0010
0000
0100
0000
0000
0002
0000
0003
0000
0000
,
0000
0000
0010
0000
0100
0000
0010
0000
0001
0000
0000
0100
0000
0000
1000
0000
,
0010
0100
0001
0100
0010
0002
0003
0000
,
0000
0000
0100
0000
0010
0000
1000
0000
0001
0000
0000
0100
0000
0000
0010
0000
,
0100
0000
0001
0000
0000
0000
1000
0000
0100
0000
0000
0010
0000
0000
0000
0000
,
0000
0000
0010
0000
0100
0000
0010
0000
0001
0000
0000
0100
0000
0000
1010
0000
,
1100
0000
0000
0011
0000
0000
0101
0000
1010
0000
0000
0000
2002
0000
0000
0000
,
0000
0000
0000
0000
3003
0000
0000
0011
0011
0011
0011
0000
1000
0000
0010
0000
,
2200
3300
0202
0303
0000
0000
0000
1010
1010
1010
1010
0000
0100
0000
0010
0000
,
0001
1000
0000
0010
0100
0001
1000
0101
0101
0101
0101
0000
0010
0000
0001
0000
,
1000
0010
1000
0100
0010
0000
0002
0103
1000
0100
0010
0001
0010
0100
1000
0010
,
0100
0001
0100
0010
0100
0000
0000
1010
1010
1010
1010
0000
0100
0000
0001
0000
,
1000
0100
0010
0000
0000
0001
0100
1010
1010
1010
1010
0000
0100
0000
0001
0000
,
0001
0010
0100
0000
1000
0000
0000
0011
0011
0011
0011
0000
1000
0000
0100
0000
,
0020
0000
0001
0000
0130
0000
0000
1000
0010
0100
0001
0100
1000
0100
0001
0010
,
0100
1000
0100
0010
0001
0000
0000
0000
0100
0000
0000
0000
0100
0000
0000
0000
,
1001
0010
0000
0000
0000
0000
0000
0000
1001
0100
0000
0000
0000
0000
0000
0000
2200
0000
0000
0000
0000
0000
0000
0000
0000
0000
0000
0000
0000
0000
0000
0000
,
3300
0000
0000
0000
;
